[MagicStar] 涩谷君来接你了 / お迎え渋谷くん EP07 [WEBDL] [1080p] [FOD]【生】【附日字】

简介:&苍产蝉辫;

HD 1080p from FOD.
Japanese subtitles added.


Support Us

Ali (Zhifubao / QR code): https://i.ibb.co/FWV2ggm/1660626347125.png
PayPalMe: https://www.paypal.com/paypalme/sakuragikenji
BTC (USDT): 19y5NF6voysif7PeJLv86Hf186ZS1i4rwu
ETH: 0x807B4eec355Cfa65500BeE65A992a9a0d8432697
LTC: LUC2dTQkte7muv5oUUuRNJimLJvi9pgZUQ


alt text
alt text

General Unique ID                      : 2359320117683700561555387000638858874 (0x1C6637675BA48E6CF8B520FF896E67A) Complete name                  : Omukae.Shibuya.kun.EP07.1080p.FOD.WEB-DL.AAC2.0.H.264-MagicStar.mkv Format                         : Matroska Format version                 : Version 4 File size                      : 494 MiB Duration                       : 22 min 53 s Overall bit rate mode          : Variable Overall bit rate               : 3 019 kb/s Frame rate                     : 29.970 FPS Encoded date                   : 2024-05-14 22:07:45 UTC Writing application            : mkvmerge v50.0.0 ('Awakenings') 64-bit Writing library                : libebml v1.4.0 + libmatroska v1.6.2  Video ID                             : 1 Format                         : AVC Format/Info                    : Advanced Video Codec Format profile                 : High@L4.1 Format settings                : CABAC / 2 Ref Frames Format settings, CABAC         : Yes Format settings, Reference fra : 2 frames Codec ID                       : V_MPEG4/ISO/AVC Duration                       : 22 min 53 s Bit rate mode                  : Variable Bit rate                       : 2 825 kb/s Maximum bit rate               : 15.0 Mb/s Width                          : 1 920 pixels Height                         : 1 080 pixels Display aspect ratio           : 16:9 Frame rate mode                : Constant Frame rate                     : 29.970 (29970/1000) FPS Original frame rate            : 29.970 (30000/1001) FPS Color space                    : YUV Chroma subsampling             : 4:2:0 Bit depth                      : 8 bits Scan type                      : Progressive Bits/(Pixel*Frame)             : 0.045 Stream size                    : 462 MiB (94%) Default                        : Yes Forced                         : No Color range                    : Limited Color primaries                : BT.709 Transfer characteristics       : BT.709 Matrix coefficients            : BT.709  Audio ID                             : 2 Format                         : AAC LC Format/Info                    : Advanced Audio Codec Low Complexity Codec ID                       : A_AAC-2 Duration                       : 22 min 53 s Bit rate                       : 192 kb/s Channel(s)                     : 2 channels Channel layout                 : L R Sampling rate                  : 48.0 kHz Frame rate                     : 46.875 FPS (1024 SPF) Compression mode               : Lossy Stream size                    : 31.4 MiB (6%) Title                          : 日本語 [オリジナル] Language                       : Japanese Default                        : Yes Forced                         : No

会员专用连接: [MagicStar] 涩谷君来接你了 / お迎え渋谷くん EP07 [WEBDL] [1080p] [FOD]【生】【附日字】

惭补驳苍别迟连接: magnet:?xt=urn:btih:FVG2JMIFPQQ2R2RV76FDET5MBDGXCP55

惭补驳苍别迟连接迟测辫别滨滨: magnet:?xt=urn:btih:2d4da4b1057c21a8ea35ff8a324fac08cd713fbd

在线播放: 保存至云端 ?

弹幕播放连接: ddplay:magnet:?xt=urn:btih:FVG2JMIFPQQ2R2RV76FDET5MBDGXCP55 播放器官方下载地址

外部搜索连接: 从谷歌搜索资源种子


  • mkv[MagicStar] Omukae Shibuya-kun EP07 [WEBDL] [1080p] [FOD] [JPN_SUB]/Omukae.Shibuya.kun.EP07.1080p.FOD.WEB-DL.AAC2.0.H.264-MagicStar.mkv 494.3MB
  • srt[MagicStar] Omukae Shibuya-kun EP07 [WEBDL] [1080p] [FOD] [JPN_SUB]/Omukae.Shibuya.kun.EP07.1080p.FOD.WEB-DL.AAC2.0.H.264-MagicStar.srt 26.5KB

***查看评论*** 請注意評論內容可能包含劇透

Processed in 0.001 second(s), 2 queries
Powered by tedmind.com Version: 1.8.1