[MagicStar] 命运 / Destiny EP06 [WEBDL] [1080p] [Netflix] [V0]【生】【附官方日英繁中字幕】

简介:&苍产蝉辫;

HD 1080p from Netflix.
Japanese, English and Chinese subtitles added.
NOTE: It will still take time to fix all the NF source code issues, but don’t worry, we’ll get there!


Support Us

Ali (Zhifubao / QR code): https://i.ibb.co/FWV2ggm/1660626347125.png
PayPalMe: https://www.paypal.com/paypalme/sakuragikenji
BTC (USDT): 19y5NF6voysif7PeJLv86Hf186ZS1i4rwu
ETH: 0x807B4eec355Cfa65500BeE65A992a9a0d8432697
LTC: LUC2dTQkte7muv5oUUuRNJimLJvi9pgZUQ


alt text
alt text

General Unique ID                      : 12142281480891647019348236043836977050 (0x92284B291433C90A611B8EFE8AFEF9A) Complete name                  : Destiny.EP06.1080p.NF.WEB-DL.DDP2.0.H.264.V0-MagicStar.mkv Format                         : Matroska Format version                 : Version 4 File size                      : 2.14 GiB Duration                       : 45 min 12 s Overall bit rate mode          : Constant Overall bit rate               : 6 773 kb/s Frame rate                     : 29.970 FPS Encoded date                   : 2024-05-14 19:51:26 UTC Writing application            : mkvmerge v50.0.0 ('Awakenings') 64-bit Writing library                : libebml v1.4.0 + libmatroska v1.6.2 Cover                          : Yes Attachments                    : cover.png  Video ID                             : 1 Format                         : AVC Format/Info                    : Advanced Video Codec Format profile                 : High@L4 Format settings                : CABAC / 1 Ref Frames Format settings, CABAC         : Yes Format settings, Reference fra : 1 frame Format settings, GOP           : M=1, N=24 Codec ID                       : V_MPEG4/ISO/AVC Duration                       : 45 min 12 s Bit rate mode                  : Constant Bit rate                       : 6 660 kb/s Width                          : 1 920 pixels Height                         : 1 080 pixels Display aspect ratio           : 16:9 Frame rate mode                : Constant Frame rate                     : 29.970 (29970/1000) FPS Original frame rate            : 29.970 (30000/1001) FPS Color space                    : YUV Chroma subsampling             : 4:2:0 Bit depth                      : 8 bits Scan type                      : Progressive Bits/(Pixel*Frame)             : 0.107 Stream size                    : 2.10 GiB (98%) Default                        : Yes Forced                         : No Color range                    : Limited Color primaries                : BT.709 Transfer characteristics       : BT.709 Matrix coefficients            : BT.709  Audio ID                             : 2 Format                         : E-AC-3 Format/Info                    : Enhanced AC-3 Commercial name                : Dolby Digital Plus Codec ID                       : A_EAC3 Duration                       : 45 min 12 s Bit rate mode                  : Constant Bit rate                       : 128 kb/s Channel(s)                     : 2 channels Channel layout                 : L R Sampling rate                  : 48.0 kHz Frame rate                     : 31.250 FPS (1536 SPF) Compression mode               : Lossy Stream size                    : 41.4 MiB (2%) Title                          : 日本語 [オリジナル] Language                       : Japanese Service kind                   : Complete Main Default                        : Yes Forced                         : No

会员专用连接: [MagicStar] 命运 / Destiny EP06 [WEBDL] [1080p] [Netflix] [V0]【生】【附官方日英繁中字幕】

惭补驳苍别迟连接: magnet:?xt=urn:btih:ES6KCI2MWS4CH5EARCB2TGSFHO3JNAJA

惭补驳苍别迟连接迟测辫别滨滨: magnet:?xt=urn:btih:24bca1234cb4b823f4808883a99a453bb6968120

在线播放: 保存至云端 ?

弹幕播放连接: ddplay:magnet:?xt=urn:btih:ES6KCI2MWS4CH5EARCB2TGSFHO3JNAJA 播放器官方下载地址

外部搜索连接: 从谷歌搜索资源种子


  • mkv[MagicStar] Destiny EP06 [WEBDL] [1080p] [Netflix] [JPN_ENG_CHT_SUB] [V0]/Destiny.EP06.1080p.NF.WEB-DL.DDP2.0.H.264.V0-MagicStar.mkv 2.1GB
  • srt[MagicStar] Destiny EP06 [WEBDL] [1080p] [Netflix] [JPN_ENG_CHT_SUB] [V0]/Destiny.EP06.1080p.NF.WEB-DL.DDP2.0.H.264.V0-MagicStar.Eng.srt 46KB
  • srt[MagicStar] Destiny EP06 [WEBDL] [1080p] [Netflix] [JPN_ENG_CHT_SUB] [V0]/Destiny.EP06.1080p.NF.WEB-DL.DDP2.0.H.264.V0-MagicStar.Jpn.srt 49.1KB
  • srt[MagicStar] Destiny EP06 [WEBDL] [1080p] [Netflix] [JPN_ENG_CHT_SUB] [V0]/Destiny.EP06.1080p.NF.WEB-DL.DDP2.0.H.264.V0-MagicStar.Cht.srt 43.4KB

***查看评论*** 請注意評論內容可能包含劇透

Processed in 0.001 second(s), 2 queries
Powered by tedmind.com Version: 1.8.1